Украина +38 095 007 73 57
Россия +7 916 968 03 00
e-mail: vbalayan@mail.ru
e-mail: tvdocfilm@gmail.com
Мой фильм о Семене Липкине на торрентах

http://tvtorrent.ru/feed/all_1/torrent_6951/

 

var begun_auto_pad = 238731160; var begun_block_id = 238731584; #begun-default-css {display:none !important;}

2011.09.19. 20-45. Россия-К. Семён Липкин. Думать не надо, плакать нельзя (дф) (ls)

 

Статистика

Сидеры: 2 | Личеры: 1 | Скачали: 4 | Размер: 769.00 Мб
Тема » Торрент-раздача
lssl
Принцесса трекера

Раздача № 6951 | Загружено: 23/09/2011 02:11:58
Тема
100 ЛЕТ СО ДНЯ РОЖДЕНИЯ СЕМЁНА ЛИПКИНА. "Думать не надо, плакать нельзя"
Думать не надо, плакать нельзя


Документальный фильм (Россия, 2011).
Автор и режиссер Валерий Балаян.

Судьбу Семена Липкина можно было бы назвать преодолением века. Благодаря этому поэту и переводчику мы познакомились с лучшими национальными эпосами многих республик, ставшими классикой. Его собственные стихи высоко ценили Эдуард Багрицкий и Осип Мандельштам, Анна Ахматова и Иосиф Бродский. Но русский читатель смог узнать «по-настоящему русского поэта», как отзывалась о нем Анна Ахматова, лишь в 1980-е годы, когда Семену Липкину было уже за семьдесят лет.
О поэте и его творчестве вспоминают жена Инна Лиснянская, Наталья Иванова, Олег Чухонцев, Александр Нилин.
ТВ-канал: Россия-К/Культура, Москва
Формат: SATRip
Год издания: 2011
Языки: Русский (Russian)
Продолжительность: 39 м.
Видео: Видео
Идентификатор : 224 (0xE0)
Формат : MPEG Video
Версия формата : Version 2
Профиль формата : Main@Main
Параметр BVOP формата : Да
Параметр матрицы формата : Выборочная
Продолжительность : 39 м.
Вид битрейта : Переменный
Битрейт : 2497 Кбит/сек
Максимальный битрейт : 15,0 Мбит/сек
Ширина : 704 пикселя
Высота : 576 пикселей
Соотношение сторон : 4:3
Частота кадров : 25,000 кадров/сек
Стандарт вещания : PAL
Цветовое пространство : YUV
Субдискретизация насыщенности : 4:2:0
Битовая глубина : 8 бит
Метод сжатия : С потерями
Бит/(Пиксели*Кадры) : 0.246
Размер потока : 698 Мбайт (91%)
Аудио: Аудио
Идентификатор : 192 (0xC0)
Формат : MPEG Audio
Версия формата : Version 1
Профиль формата : Layer 2
Продолжительность : 39 м.
Вид битрейта : Постоянный
Битрейт : 192 Кбит/сек
Каналы : 2 канала
Частота : 48,0 КГц
Метод сжатия : С потерями
Размер потока : 53,7 Мбайт (7%)

 

 
< Пред.   След. >
 
© 2008 Персональный сайт Валерия Балаяна